2067.2020 HDRip full movie torrent download

2067.2020 HDRip

2067.2020 HDRip full movie torrent download

Seeds 23 Peers 17
Torrent Health

Download torrent

Director: Seth Larney

Authors: Seth Larney, Dave Paterson (additional material)

Stars: Kodi Smit-McPhee, Ryan Kwanten, Sana’a Shaik

Land / history:

Man’s journey into the future to save a dying world.

General

Full name :

Format: AVI

Format / Information: Audio Video Interleave

File size: Gio

Duration: 1 hour 54 min

Total bit rate: 1305 kb / s

Subtitles: (HI)

Video

ID: 0

Format: MPEG-4 visual

Format profile: higher

Format settings, BVOP: 2

Format settings, QPel: No.
Fatima 2020 DVDRip HD full movie torrent download

Format settings, GMC: no deformation points

Format, matrix parameters: Standard ()

Codec ID: XVID

Codec ID / Index: XviD

Duration: 1 hour 54 mins

Bit rate: 1164 kb / s

Width: 720 pixels

Height: 304 pixels

Display aspect ratio: 1

Frame rate: (24000/1001) FPS

Color space: YUV

Chromatic downgrade: 4: 2: 0

Bit depth: 8 pieces

Type of scan: progressive

Compression mode: lossy

Bits / (Pixel Frame *):

Stream size: 953 MiB (89%)

Writing library: XviD 64

sound

ID: 1

Format: MPEG audio

Format version: version 1

Format Profile: Tier 3

Codec ID: 55

Codec ID / Index: MP3

Duration: 1 hour 54 mins

Bit rate mode: constant

Bit rate: 128 kb / s

Channel (s): 2 channels

Sampling frequency: kHz

Compression mode: lossy

Stream size: 105 MiB (10%)

Alignment: aligned with cover pages

Intertwined, duration: 24 ms (video frame)

Snapshot:

Please sow as long as possible

Or at least 1: 1

Enjoy Peeps.

2067.2020 HDRip

Leave a Reply

Your email address will not be published. Required fields are marked *

You may use these HTML tags and attributes: <a href="" title=""> <abbr title=""> <acronym title=""> <b> <blockquote cite=""> <cite> <code> <del datetime=""> <em> <i> <q cite=""> <s> <strike> <strong>